» » Bill Evans & Orchestra - Theme From The "V.I.P.S"

Bill Evans & Orchestra - Theme From The "V.I.P.S" mp3 album

  • Performer: Bill Evans & Orchestra
  • Title: Theme From The "V.I.P.S"
  • Genre: Jazz / Stage
  • Country: US
  • Formats: AA MP2 MP1 ASF MMF DTS WAV
  • Released: 1963
  • Style: Theme
  • MP3 album: 1496 mb
  • FLAC album: 1929 mb
  • Rating: 4.1/5
  • Votes: 869
Bill Evans & Orchestra - Theme From The "V.I.P.S" mp3 album

Plays the Theme from The . s and Other Great Songs is an album of theme music by jazz pianist Bill Evans with an orchestra conducted by Claus Ogerman recorded in 1963 for the MGM label. The album was an intentionally commercial production and the tracks were omitted from the 18-CD collection The Complete Bill Evans on Verve as they were deemed to have negligible artistic merit. Theme from "Mr. Novak"" (Lyn Murray) - 2:04.

Bill Evans - Theme From ''Mr. wav Pre-gap length 0:00:02. wav" WAVE INDEX 01 00:00:00 TRACK 07 AUDIO TITLE "Hollywood" PERFORMER "Bill Evans" INDEX 00 02:24:04 FILE "07 - Hollywood. wav" WAVE INDEX 01 00:00:00 TRACK 08 AUDIO TITLE "Sweet September" PERFORMER "Bill Evans" INDEX 00 03:35:55 FILE "08 - Sweet September. wav" WAVE INDEX 01 00:00:00 TRACK. Bill Evans' 1963 album Plays the Theme from The . s and Other Great Songs features the legendary pianist eschewing his more introspective sound for a commercial pop approach.

Bill Evans And Orchestra. Bill Evans & Orchestra. S" ‎(7", Promo, DJ ). Verve Records.

Verve: The Sound Of America: The Singles Collection. 1 2 3 4 5. Nat King Cole, Louis Armstrong, Габриэль Форе. Bill Evans - On Broadway. dl. Claus Ogerman, Kenny Burrell, Kai Winding - More (Theme From Mondo Cane). Bill Evans - Theme From the .

Artists Bill Evans Bill Evans With Symphony Orchestra. Bill Evans With Symphony Orchestra Bill Evans. Bill Evans With Symphony Orchestra. This album has an average beat per minute of 121 BPM (slowest/fastest tempos: 71/181 BPM). See its BPM profile at the bottom of the page. Tracklist Bill Evans With Symphony Orchestra.

Taylor was anxious, as perhaps was Evans, to get some crossover success and so, in 1963, he recorded an album with Claus Ogerman called, Bill Evans Plays The Theme From The . s And Other Great Songs. It included a number of popular movie themes that were released as singles to get that all-important airplay. Bill Evans with symphony Orchestra is a wonderful and sometimes overlooked album. Related Topics:Bill Evans Claus Ogerman Jazz On This Day reDiscovered Albums Verve Records.

Love Theme From The Godfather Blue Seas Grand Orchestra. Blue Turn To Grey The Breakaways. Theme From Terminator III The Hollywood Movie Orchestra. Time Cop (Soundtrack from 'Time Cop') (Main Theme) I Sham. Still I Remain Evans Blue. 04 - I Can't Stay Away From You Samantha Blue with The London Starlight Orchestra. I Caught the Blues From Someone Else Bobby 'Blue' Bland.

Some Other Time (Live). Whims Of Chamberland. Some Other Time (Live).

Tracklist Hide Credits

A Theme From The "V.I.P.'S"
Written-By – Rozsa*
2:21
B Sweet September
Written-By – McGuffie*
2:13

Companies, etc.

  • Record Company – MGM Records
  • Record Company – Metro-Goldwyn-Mayer
  • Published By – Robbins Music
  • Published By – B. F. Wood Music

Credits

  • Arranged By – Klaus Ogerman*
  • Producer – Creed Taylor

Notes

Special Disc Jockey Record
A Side: From The MGM Motion Picture
MGM Records - A Division of Metro - Goldwyn - Meyer, Inc.

Barcode and Other Identifiers

  • Matrix / Runout (Side A, label): 63-vk-420
  • Matrix / Runout (Side B, label): 63-vk-444
  • Matrix / Runout (Side A, runout, etched): VK 10296 63VK420
  • Matrix / Runout (Side B, runout, etched): VK 10296 63VK444
  • Rights Society: ASCAP

Other versions

Category Artist Title (Format) Label Category Country Year
VK 10296 Bill Evans & Orchestra Theme From "The V.I.P.'S" / Sweet September ‎(7") Verve Records VK 10296 US Unknown
V-5092 Bill Evans And Orchestra* Theme From "The V.I.P.'S" ‎(7", Single) Verve Records V-5092 Australia 1963
VS 514 Bill Evans & Orchestra Theme From "The V.I.P.'S" ‎(7", Single) Verve Records VS 514 UK 1963




Related to Bill Evans & Orchestra - Theme From The "V.I.P.S" albums: