» » Louis Armstrong And His Orchestra - Dallas Blues / Bessie Couldn't Help It

Louis Armstrong And His Orchestra - Dallas Blues / Bessie Couldn't Help It mp3 album

  • Performer: Louis Armstrong And His Orchestra
  • Title: Dallas Blues / Bessie Couldn't Help It
  • Genre: Jazz
  • Country: France
  • Formats: DMF VOC MP2 AUD AIFF AA MP1
  • Released: 1937
  • Style: Swing
  • MP3 album: 1423 mb
  • FLAC album: 1907 mb
  • Rating: 4.8/5
  • Votes: 584
Louis Armstrong And His Orchestra - Dallas Blues / Bessie Couldn't Help It mp3 album

Artist: Louis Armstrong & His Orchestra. All My Best: Best 2 songs. His Orchestra, Louis Armstrong, Louis Armstrong & His Orchestra - Tomorrow Night Days Of Radio, 2017 03:21. Artist: Louis Armstrong & His Orchestra.

Complete your Louis Armstrong And His Orchestra collection.

92 989. Louis Armstrong & His Orchestra. His Last Recordings - Unforgettable Satchmo ‎(LP, Album). Louis Armstrong And His Orchestra. Sensational Satchmo ‎(LP). Bessie Couldn't Help It, Dallas Blues.

Features Song Lyrics for Louis Armstrong feat. His Orchestra's The Chronological Classics: Louis Armstrong and His Orchestra 1929-1930 album. After You've Gone Lyrics. 4. Dallas Blues Lyrics. 5. Rockin' Chair Lyrics. 6. Bessie Couldn't Help It Lyrics. 7. Blue Turning Grey Over You Lyrics.

Read about Bessie Couldn't Help It by Louis Armstrong and see the artwork, lyrics and similar artists. Connect to this site.

Performer: Louis Armstrong and His OrchestraWriter: Garret; WandFox Trot with Vocal Refrain. Digitized at 78 revolutions per minute  . Other IDs from the record include: (403494). The recording on the other side of this disc: Bessie Couldn't Help It. Technical Notes: Swishing and some distortion.

flac" WAVE INDEX 01 00:00:00 TRACK 13 AUDIO TITLE "St. Louis Blues" PERFORMER "Louis Armstrong And His Orchestra" INDEX 00 03:16:10 FILE "13. St. Louis Blues. Bessie Couldn't Help I. lac" WAVE INDEX 01 00:00:00 TRACK 17 AUDIO TITLE "Blue, Turning Grey Over You" PERFORMER "Louis Armstrong And His Orchestra" INDEX 00 03:20:65 FILE "17. Blue, Turning Grey Over Yo. lac" WAVE INDEX 01 00:00:00 TRACK 18 AUDIO TITLE "Dear Old Southland" PERFORMER "Louis Armstrong And His Orchestra" INDEX 00 03:27:00 FILE "18.

Album · 2002 · 24 Songs. Manhattan Rag. Frankie Trumbauer and His Orchestra. Bessie Couldn't Help It. Hoagy Carmichael and His Orchestra. 16. Papa's Gone Bye-Bye Blues (Jewish Boy Blues).

097-02-Louis Armstrong and His Orchestra-Bessie Couldn't Help I. lac reported successfully, action will be taken soon. 097-02-Louis Armstrong and His Orchestra-Bessie Couldn't Help I. lac. Name: 097-02-Louis Armstrong and His Orchestra-Bessie Couldn't Help I. 097-01-Louis Armstrong and His Orchestra-Song Of The Islands. 1. 6 MB. 10 months ago.

Tracklist Hide Credits

A Dallas Blues
Composed By – Wand*Lyrics By – Garrett*
B Bessie Couldn't Help It
Written-By – Warner*, Bayha*, Richmond*

Companies, etc.

  • Record Company – Brunswick Record Corporation

Credits

  • Alto Saxophone [Uncredited], Clarinet [Uncredited] – Albert Nicholas, Charlie Holmes
  • Double Bass [Uncredited] – Pops Foster
  • Drums [Uncredited] – Paul Barbarin
  • Guitar [Uncredited] – Will Johnson
  • Piano [Uncredited] – Luis Russell
  • Tenor Saxophone [Uncredited] – Teddy Hill
  • Trombone [Uncredited] – J.C. Higginbotham
  • Trumpet [Uncredited] – Henry "Red" Allen, Otis Johnson
  • Trumpet [Uncredited], Vocals [Uncredited] – Louis Armstrong

Notes

Fox trots with vocal refrains.

Side A recorded December 10, 1929, New York, NY.

Side B recorded February 1, 1930, New York, NY.

This issue duplicates material originally released on Okeh 8774 in 1930. This release has a simplified scroll design label in gold on black, dating it to between 1935-1937.

Barcode and Other Identifiers

  • Matrix / Runout (Side A Label): 403494
  • Matrix / Runout (Side B Label): 403714
  • Matrix / Runout (Side A Runout): Ⓦ403494C A-4
  • Matrix / Runout (Side B Runout): Ⓦ403714B A-3

Other versions

Category Artist Title (Format) Label Category Country Year
279.485 Louis Armstrong And His Orchestra Bessie Couldn't Help It / Dallas Blues ‎(Shellac, 10") Odeon 279.485 France 1929
279.485 Louis Armstrong Et Son Orchestre* Bessie Couldn't Hep It / Dallas Blues ‎(Shellac, 10") Odeon 279.485 France Unknown


Related to Louis Armstrong And His Orchestra - Dallas Blues / Bessie Couldn't Help It albums: