» » Peter McCann - Peter McCann

Peter McCann - Peter McCann mp3 album

  • Performer: Peter McCann
  • Title: Peter McCann
  • Genre: Rock / Pop
  • Country: US
  • Formats: MP1 WAV VOX VOC AAC MPC DMF
  • Released: 1977
  • Style: Soft Rock, Pop Rock, Ballad
  • MP3 album: 1596 mb
  • FLAC album: 1744 mb
  • Rating: 4.5/5
  • Votes: 691
Peter McCann - Peter McCann mp3 album

Peter McCann (born March 6, 1948) is an American musician and songwriter. Born in Bridgeport Connecticut, McCann graduated from Fairfield University in Connecticut (1970) with a . He began recording for Motown Records in 1971. His two Motown albums with the group Repairs were produced by Andrew Loog Oldham, producer of the Rolling Stones.

Peter McCann is an american singer and songwriter from Bridgeport, Connecticut.

Complete your Peter McCann collection. Peter McCann ‎– Peter McCann. Genre: Rock, Pop. Style: Soft Rock, Pop Rock, Ballad. Do You Wanna Make Love ‎(LP, Album). 20th Century Records. BT 544. Peter McCann.

Peter McCann (born March 6, 1948 to Donal George McCann and Amelia Hennigan in Bridgeport, Connecticut) is an American songwriter and recording artist, who currently resides in Nashville, Tennessee. He grew up with his seven siblings in the family house in Bridgeport, Connecticut. Among his siblings are Michael McCann, who recorded the album Soldier's Songs. In the early 1970s Peter was a member of the Bridgeport-based folk-rock band Repairs, which released two albums on various Motown subsidiaries

Topics about Peter McCann albums in general should be placed in relevant topic categories. This category contains albums by Peter McCann. Pages in category "Peter McCann albums". This category contains only the following page. This list may not reflect recent changes (learn more). P. Peter McCann (album). php?title Category:Peter McCann albums&oldid 849294510".

Album by Peter McCann. Do You Wanna Make Love. Everybody's Got To Hold On To Something. I Can't Live Without You. It's Easy. The Things You Left Behind. Right Time Of The Night. If You Can't Find Love.

Album: Pete McCann (1977). Charted: 5. Get the Sheet Music License This Song .

Tracklist

Do You Wanna Make Love 3:18
Everybody's Got To Hold On To Something 2:51
I Can't Live Without You 3:34
It's Easy 2:55
The Things You Left Behind 3:30
Save Me Your Love 2:31
Suicide And Vine 2:39
Broken White Line 3:21
Right Time Of The Night 3:09
If You Can't Find Love 3:29

Versions

Category Artist Title (Format) Label Category Country Year
T-544 Peter McCann Peter McCann ‎(LP, Album, San) 20th Century Records T-544 US 1977
BT 544 Peter McCann Do You Wanna Make Love ‎(LP, Album) 20th Century Records BT 544 US 1977
BT 544 Peter McCann Do You Wanna Make Love ‎(LP, Album) 20th Century Records BT 544 UK 1977
L 36311 Peter McCann Peter McCann ‎(LP, Album) 20th Century Records L 36311 New Zealand 1977
ML 4127 Peter McCann Peter McCann ‎(LP, Album) 20th Century Records ML 4127 South Africa 1977
110.008 Peter McCann Peter McCann ‎(LP, Album) 20th Century Records 110.008 Venezuela 1977
17.1241/1 Peter McCann Peter McCann ‎(LP, Album) 20th Century Records 17.1241/1 Spain 1977
9209-544 Peter McCann Peter McCann ‎(LP, Album) 20th Century Records 9209-544 Canada 1977
6370 257 Peter McCann Peter McCann ‎(LP, Album) 20th Century Records 6370 257 Germany 1977
T-544 Peter McCann Peter McCann ‎(LP, Album) 20th Century Records T-544 US 1977
T-544 Peter McCann Peter McCann ‎(LP, Album, Ter) 20th Century Records T-544 US 1977
222 Peter McCann Peter McCann ‎(CD, Album, RE, RM, Pap) Big Pink Music 222 South Korea 2012



Reviews about Peter McCann - Peter McCann (1):
Thorgahuginn
foobar2000 1.3.17 / Dynamic Range Meter 1.1.1log date: 2018-08-14 19:28:31--------------------------------------------------------------------------------Analyzed: Peter McCann / Peter McCann [KR 2012 CD]--------------------------------------------------------------------------------DR Peak RMS Duration Track--------------------------------------------------------------------------------DR8 -0.40 dB -11.72 dB 3:33 01-Do You Wanna Make LoveDR9 -0.10 dB -11.17 dB 3:03 02-Everybody`s Got To Hold On To SomethingDR10 -0.10 dB -11.07 dB 3:47 03-I Can`t Live Without YouDR10 -0.40 dB -12.18 dB 3:08 04-It`s EasyDR9 -0.40 dB -11.81 dB 3:46 05-The Things You Left BehindDR10 -0.10 dB -11.09 dB 2:42 06-Save Me Your LoveDR10 -0.10 dB -12.93 dB 2:52 07-Suicide And VineDR10 -0.10 dB -11.21 dB 3:35 08-Broken White LineDR9 -0.10 dB -10.44 dB 3:22 09-Right Time Of The NightDR9 -0.10 dB -11.52 dB 3:44 10-If You Can`t Find Love--------------------------------------------------------------------------------Number of tracks: 10Official DR value: DR9Samplerate: 44100 HzChannels: 2Bits per sample: 16Bitrate: 876 kbpsCodec: ALAC================================================================================

Related to Peter McCann - Peter McCann albums: