» » Quatuor Aerolithes - Aerolithes

Quatuor Aerolithes - Aerolithes mp3 album

  • Performer: Quatuor Aerolithes
  • Title: Aerolithes
  • Genre: Jazz
  • Formats: RA DTS MP1 AAC APE ADX AHX
  • Released: 2005
  • Style: Free Jazz, Free Improvisation
  • MP3 album: 1971 mb
  • FLAC album: 1536 mb
  • Rating: 4.4/5
  • Votes: 957
Quatuor Aerolithes - Aerolithes mp3 album

Quatuor Aerolithes - Les Sources. 2. Quatuor Aerolithes - Le Scintillement. 3. Quatuor Aerolithes - La Gravite. 4. Quatuor Aerolithes - L &.5. Quatuor Aerolithes - La Porosite. Quatuor Aerolithes - Aerolithes 2005/ - . 0. Quatuor Aerolithes - Aerolithes 2005/01 Les Sources. MACOSX/Quatuor Aerolithes - Aerolithes 2005/ - . MACOSX/Quatuor Aerolithes - Aerolithes 2005/. Quatuor Aerolithes - Aerolithes 2005/02 Le Scintillement. MACOSX/Quatuor Aerolithes - Aerolithes 2005/

Quatuor Aerolithes, Aerolithes Жанр: Free Improvisation Носитель: CD Страна-производитель диска (релиза): France Год издания: 2005 Издатель (лейбл): Vand'Oeuvre Номер по каталогу: 0529 Аудиокодек: FLAC . lac) Тип рипа: tracks+. cue Битрейт аудио: lossless Продолжительность: 48:04 Источник (релизер): cd Наличие сканов в содержимом раздачи: нет Треклист: 1. Les Sources 12:58 2. Le Scintillement. 00 FILE "03 La Gravite. wav" WAVE TRACK 03 AUDIO TITLE "La Gravite" PERFORMER "Quatuor Aerolithes" INDEX 01 00:00:00 FILE "04 L &.wav" WAVE TRACK 04 AUDIO TITLE "L & PERFORMER "Quatuor Aerolithes" INDEX 01 00:00:00 FILE "05 La Porosite. wav" WAVE TRACK 05 AUDIO TITLE "La Porosite" PERFORMER "Quatuor Aerolithes" INDEX 01 00:00:00.

Artist: Quatuor Aerolithes Title: Aerolithes Year Of Release: 2005 Label: Vand'Oeuvre Genre: Jazz, Free Improvisation Quality: FLAC (tracks+. Tracklist: 1. Les Sources (12:58) 2. Le Scintillement (10:10) 3. La Gravité (7:08) 4. L'Exténuation (9:19) 5. La Porosité (8:17).

Genitiv (Wessen?) des Aerolithes.

On this page you can listen to mp3 music free or download album or mp3 track to your PC, phone or tablet.

Quatuor Aerolithes - Aerolithes 2005 01 Les Sources. flac 02 Le Scintillement. Quatuor Aerolithes (Daunik Lazro, Michel Doneda, Laurent Hoevenaers, Michael Nick) - Aerolithes - 2005, FLAC (tracks+. Download via torrent Download via magnet. Quatuor Aerolithes - Aerolithes 2005.

Tracklist

1 Les Sources 12:58
2 Le Scintillement 10:10
3 La Gravité 7:08
4 L'Exténuation 9:19
5 La Porosité 8:17

Credits

  • Alto Saxophone, Baritone Saxophone – Daunik Lazro
  • Cello – Laurent Hoevenaers
  • Edited By, Mastered By – Jean-Marc Foussat
  • Recorded By – Francois Dietz*
  • Soprano Saxophone, Sopranino Saxophone – Michel Doneda
  • Violin, Performer [Quinton] – Michael Nick

Notes

Recorded in concert at CCAM de Vandoeuvre-lès-Nancy, France, 2001-10-26

Related to Quatuor Aerolithes - Aerolithes albums: