» » Byrne & Barnes - An Eye For An Eye

Byrne & Barnes - An Eye For An Eye mp3 album

  • Performer: Byrne & Barnes
  • Title: An Eye For An Eye
  • Genre: Rock / Funk
  • Country: Japan
  • Formats: AC3 WAV VQF AAC ASF ADX AIFF
  • Released: 2001
  • Style: Funk, Soul, AOR, Soft Rock
  • MP3 album: 1429 mb
  • FLAC album: 1113 mb
  • Rating: 4.6/5
  • Votes: 293
Byrne & Barnes - An Eye For An Eye mp3 album

Tracklist: 01 – Never Gonna Stop Lovin You 02 – One More Try for Love 03 – Love You out of Your Mind 04 – Ill Try a Little Every Day for You 05 – Crack the Whip 06 – Standby Lover 07 – Keep on Running 08 – Making Love for the First Time 09 – Be My Baby 10 – An Eye for an Eye 11 – Right Through the Heart. Mail (will not be published) (required).

Forgotten Treasure : Byrne & Barnes An Eye For An Eye (1981). David Cantin - July 4, 2016. From ‘‘A’’ Train to Greg Yoder, the quality never ceases to amaze. Just in time for summer, the West Coast cult classic An Eye For An Eye by duo Byrne & Barnes is early 80’s sophisticated pop at its best. For many AOR addicts, this record is considered a blue-eyed soul masterpiece (originally released on Japanese label Climax and.

Byrne and Barnes Love You Out Of Your Mind. Byrne and Barnes Who's That Look In Youe Eye (Bonus Track). Byrne & Barnes Love You Out Of Your Mind.

An Eye For An Eye features amazing and sophisticated songs, and parades all the elements of the AOR style: a jazzy sometimes fusion approach, with modern soul and groove flavors. If it's almost unknown in Byrne & Barnes' country of origins and in most part of the world, it's become hugely popular and sought-after in Japan and for all West Coast music lovers. After Charles Maurice recently selected the song. Housed in tip-on jacket. In 1981, Robert Byrne followed up to his 1979 album, Blame It On The Night, by teaming-up with t Brendan Barnes to record this rare West Coast classic.

Robert Byrne & Brandon Barnes - Album : "An Eye For An Eye" - 1981 Tracks : 01 - An Eye For An Eye 02 - Standby Lover 03 - Crack The Whip 04 - Keep O. .Byrne & Barnes - Never Gonna Stop Lovin' YouFranck-Luc Dancelme BYRNE AND BARNES - AN EYE FOR AN EYEcruisinmusic. 7 years ago. from album "AN EYE FOR AN EYE" (1981). Byrne and Barnes One More Try For Love (君がいるかぎり)ohanakamakame.

Barnes extends that cheery, demotic creed by calling for an art that gooses you, that gives you a visual gargle. I’m not sure what a visual gargle would look or sound like, and I’ve never knowingly been goosed, but this, phrased more comically, is what old-fashioned humanists meant when they said that art should be life-enhancing, and it’s hard to disagree. Keeping an Eye Open by Julian Barnes (Jonathan Cape, £1. 9). com or call 0330 333 6846.

Tracklist

1 An Eye For An Eye
2 Standby Lover
3 Crack The Whip
4 Keep On Running
5 One More Try For Love
6 Never Gonna Stop Lovin' You
7 Love You Out Of Your Mind
8 I'll Try A Little Everyday For You
9 Making Love For The First Time
10 Be My Baby
11 Right Through The Heart
Bonus Tracks
12 That's The Way She Goes
13 Who's That Look In Your Eye

Companies, etc.

  • Manufactured By – Pryaid Records Inc.
  • Licensed From – Audio-Therapy Innovations Inc.

Notes

Under The License From Audio Therapy Innovations, Inc.
Made In Japan.

Other versions

Category Artist Title (Format) Label Category Country Year
CMC-2502 Byrne & Barnes An Eye For An Eye ‎(LP, Album) Climax Records CMC-2502 Japan 1981
FVR118CD Byrne & Barnes An Eye For An Eye ‎(CD, Album, RE) Favorite Recordings FVR118CD France 2016
FVR118LP Byrne & Barnes An Eye For An Eye ‎(LP, Album, RE) Favorite Recordings FVR118LP France 2016
VSCD-3544 Byrne & Barnes An Eye For An Eye ‎(CD, Album, RE, RM, Car) Riverman VSCD-3544 Japan 2012
BTR0092 Byrne & Barnes An Eye For An Eye ‎(CD, Album, RE, RM, Car) Riverman BTR0092 South Korea 2011



Reviews about Byrne & Barnes - An Eye For An Eye (1):
BeatHoWin
foobar2000 1.3.17 / Dynamic Range Meter 1.1.1log date: 2018-12-11 22:25:15--------------------------------------------------------------------------------Analyzed: Byrne & Barnes / An Eye For An Eye [JP 2001 CD]--------------------------------------------------------------------------------DR Peak RMS Duration Track--------------------------------------------------------------------------------DR13 -0.24 dB -16.32 dB 3:52 01-An Eye For An EyeDR13 -0.75 dB -17.43 dB 4:09 02-Standby LoverDR13 -0.67 dB -16.64 dB 3:21 03-Crack The WhipDR13 -0.31 dB -16.35 dB 3:18 04-Keep On RunningDR14 -2.39 dB -19.85 dB 3:59 05-One More Try For LoveDR13 -0.21 dB -16.31 dB 3:33 06-Never Gonna Stop Lovin' YouDR12 -2.05 dB -16.93 dB 3:14 07-Love You Out Of Your MindDR13 -3.29 dB -18.84 dB 3:20 08-I'll Try A Little Everyday For YouDR13 -0.70 dB -16.65 dB 2:56 09-Making Love For The First TimeDR13 -0.37 dB -17.64 dB 2:54 10-Be My BabyDR14 -1.11 dB -17.55 dB 3:57 11-Right Through The HeartDR15 -0.11 dB -17.69 dB 4:16 12-That's The Way She GoesDR14 -0.05 dB -18.21 dB 3:32 13-Who's That Look In Your Eye--------------------------------------------------------------------------------Number of tracks: 13Official DR value: DR13Samplerate: 44100 HzChannels: 2Bits per sample: 16Bitrate: 687 kbpsCodec: ALAC================================================================================

Related to Byrne & Barnes - An Eye For An Eye albums: